查看完整版本: [-- Ariana Grande《Dangerous Woman [Deluxe] (2016)》FLAC --]

酷乐音乐社区 -> 无损欧美 -> Ariana Grande《Dangerous Woman [Deluxe] (2016)》FLAC [打印本页] 登录 -> 注册 -> 回复主题 -> 发表主题

wszdlh 2016-07-17 19:21

Ariana Grande《Dangerous Woman [Deluxe] (2016)》FLAC


[attachment=32601] [attachment=32602] [attachment=32603]

★2016时代杂志百大影响力人物 YouTube超过37亿人次疯狂点击  
★力邀粉红妖姬Nicki Minaj、嘻哈天王Lil Wayne、灵魂天后Macy Gray等天王天后跨刀助阵
★收录秒杀全球41国iTunes冠军主打"Dangerous Woman",豪华盘超值加收 “Bad Decisions”、“Touch It”等四首bonus tracks

一个年仅22岁的年轻女孩,很难让人相信竟然能够轻鬆诠释蕾哈娜、席琳狄翁、布兰妮、克莉丝汀、惠妮休斯顿等乐坛天后的歌曲,她充满魔法的嗓音让她的作品在YouTube平台吸引超越37亿人次点击,她就是乐坛新生代天后-Ariana Grande。睽违两年之后,Ariana Grande这次以更成熟的面貌回到乐坛,「我想要把自主的力量带给我的粉丝,将这些年的成长都反映在这张新作品。对我而言,危险的女人是不怕去表达立场,做自己,真诚坦率。」这是亚莉安娜(Ariana Grande)在看完埃及女性主义作家纳瓦勒萨达维的书作「Woman At Point Zero」后撞击出的全新音乐概念。对亚莉安娜来说,这张专辑充分显现出她想挥别过去小女孩的形象,用她的完美嗓音俘虏每一个乐迷,蜕变为最危险的尤物!

2013年以单曲“The Way”闯进全美热门单曲榜TOP 10,首张大碟【Yours Truly】空降美国专辑榜冠军,2014年再接再厉发行第二张专辑【My Everything】更让Ariana Grande写下自苏珊波尔后,唯一以出道首两张专辑空降登上全美专辑榜冠军的女歌手。专辑主打“Problem”、“Break Free”、“Bang Bang”、“Love Me Harder”四首单曲全数挺进全美热门单曲榜TOP 10,创下2014年拥有最多首TOP 10单曲艺人的纪录,去年更获得史上最伟大的跨界男高音-安德烈波伽利邀请,合唱改编自电影《四海兄弟》主题音乐的动人情歌“E Pi? Ti Penso”,个人YouTube/VEVO频道也惊人累积超过37亿人次点阅纪录。除了在音乐上拥有亮眼成绩,亚莉安娜也在去年参与热门影集《尖叫女王》演出,演艺事业有了全方位的发展。

2016全新推出的第三张专辑【Dangerous Woman】邀请到多位当红製作人打造,包括Max Martin(凯蒂佩芮、魔力红、泰勒丝)、Ilya Salmanzadeh (艾丽高登)、Twice As Nice(蕾哈娜)、以及合作多年的老搭档Tony Brown操刀,甚至共和世代主唱Ryan Tedder都慕名前来共同製作。展现成熟韵味的首波同名主打“Dangerous Woman”结合流行、节奏蓝调曲风,描述在感情关系裡展现自主与自信的风采,一推出旋即空降全球41国iTunes单曲榜冠军,成为亚莉安娜第7首全美热门单曲榜TOP 10作品;邀请嘻哈天王Lil Wayne合作失恋疗伤情歌"Let Me Love You",滚石杂志推荐评为「一首热情闷烧,瀰漫午夜迷情氛围的歌曲」;融合浩室节奏与90年代节奏蓝调元素的派对舞曲"Be Alright";与粉红妖姬Nicki Minaj三度合作嘻哈劲曲“Side to Side”;豪华精装盘更超值收录由共和世代主唱Ryan Tedder跨刀製作“Knew Better / Forever Boy”、 “Bad Decisions”、“Touch It”、 “Thinkin’ About You”四首新曲。

[曲目介绍]

01. Moonlight 月光
02. Dangerous Woman 危险尤物 秒杀全球41国iTunes冠军主打  
03. Be Alright 好好的
04. Into You 煞到你
05. Side to Side (feat. Nicki Minaj) 招摇 粉红妖姬Nicki Minaj PK过招
06. Let Me Love You (feat. Lil Wayne) 让我爱你 嘻哈天王Lil Wayne精彩跨刀
07. Greedy 贪心  
08. Leave Me Lonely (feat. Macy Gray) 放下我 葛莱美奖灵魂女歌手Macy Gray完美合唱
09. Everyday (feat. Future) 每一天 冠军南岸嘻哈歌手Future助阵
10. Sometimes 有时候
11. I Don’t Care 我不在乎
12. Bad Decisions 错误决定
13. Touch It 达阵
14. Knew Better / Forever Boy 早知道/永远的爱 共和世代主唱Ryan Tedder打造
15. Thinkin’ About You 想著你

Exact Audio Copy V1.1 from 23. June 2015

EAC extraction logfile from 20. May 2016, 12:33

Ariana Grande / Dangerous Woman (Deluxe Edition)

Used drive  : HL-DT-STDVDRAM GH24NSD1   Adapter: 0  ID: 0

Read mode               : Secure
Utilize accurate stream : Yes
Defeat audio cache      : Yes
Make use of C2 pointers : No

Read offset correction                      : 6
Overread into Lead-In and Lead-Out          : No
Fill up missing offset samples with silence : Yes
Delete leading and trailing silent blocks   : No
Null samples used in CRC calculations       : Yes
Used interface                              : Installed external ASPI interface

Used output format : Internal WAV Routines
Sample format      : 44.100 Hz; 16 Bit; Stereo


TOC of the extracted CD

     Track |   Start  |  Length  | Start sector | End sector
    ---------------------------------------------------------
        1  |  0:00.00 |  3:22.27 |         0    |    15176  
        2  |  3:22.27 |  3:55.71 |     15177    |    32872  
        3  |  7:18.23 |  2:59.22 |     32873    |    46319  
        4  | 10:17.45 |  4:04.33 |     46320    |    64652  
        5  | 14:22.03 |  3:46.13 |     64653    |    81615  
        6  | 18:08.16 |  3:43.63 |     81616    |    98403  
        7  | 21:52.04 |  3:34.69 |     98404    |   114522  
        8  | 25:26.73 |  3:49.51 |    114523    |   131748  
        9  | 29:16.49 |  3:14.63 |    131749    |   146361  
       10  | 32:31.37 |  3:46.50 |    146362    |   163361  
       11  | 36:18.12 |  2:58.02 |    163362    |   176713  
       12  | 39:16.14 |  3:46.32 |    176714    |   193695  
       13  | 43:02.46 |  4:20.00 |    193696    |   213195  
       14  | 47:22.46 |  4:59.16 |    213196    |   235636  
       15  | 52:21.62 |  3:20.30 |    235637    |   250666  


Range status and errors

Selected range

     Filename H:\SPOTNET\Ariana Grande - Dangerous Woman (EAC)\Ariana Grande - Dangerous Woman (Deluxe Edition).wav

     Peak level 99.8 %
     Extraction speed 7.4 X
     Range quality 99.9 %
     Test CRC 554D41AD
     Copy CRC 554D41AD
     Copy OK

No errors occurred


AccurateRip summary

Track  1  not present in database
Track  2  not present in database
Track  3  not present in database
Track  4  not present in database
Track  5  not present in database
Track  6  not present in database
Track  7  not present in database
Track  8  not present in database
Track  9  not present in database
Track 10  not present in database
Track 11  not present in database
Track 12  not present in database
Track 13  not present in database
Track 14  not present in database
Track 15  not present in database

None of the tracks are present in the AccurateRip database

End of status report


链接
此帖售价 10 酷币,已有 12 人购买
若发现会员采用欺骗的方法获取财富,请立刻举报,我们会对会员处以2-N倍的罚金,严重者封掉ID!
  
本部分内容设定了隐藏,需要回复后才能看到

gj13132 2016-07-18 09:37
听听再说

murmurbear 2016-08-12 17:45
一直在找无损下载 终于找到了 嘿嘿 真是每首都给力啊这张专辑

chiow_663799 2016-09-02 07:52
感激,喜欢这位小天后的嗓音

nihaoma2 2016-10-09 19:25
thank you for sharing

731306187 2016-12-12 16:21
Bad Decisions 好听

lhpvv 2017-04-05 16:52
太贵了。。。。。。。。。。。。。。

withsheep 2017-08-29 20:51
来巡回了~为了SOMETIMES~

jsrgczl 2017-08-30 09:45
宝贝我来了,再贵也要下载啊

phhsecon 2018-08-26 03:39
thanks for sharing

zouchen123 2018-11-28 13:58
特地来收藏一下!

等待破曉 2020-12-05 19:26
非常感謝分享~~~

jmmm0926 2021-03-19 21:00
喜欢side to side 这一曲啊


查看完整版本: [-- Ariana Grande《Dangerous Woman [Deluxe] (2016)》FLAC --] [-- top --]


Powered by PHPWind v7.5 SP3 Code ©2003-2010 PHPWind
Time 0.009188 second(s),query:3 Gzip enabled

You can contact us