查看完整版本: [-- (自购自压) Leona Lewis - Spirit 引进版/WAV/整轨/LOG百度盘 --]

酷乐音乐社区 -> 无损欧美 -> (自购自压) Leona Lewis - Spirit 引进版/WAV/整轨/LOG百度盘 [打印本页] 登录 -> 注册 -> 回复主题 -> 发表主题

wszdlh 2016-07-16 19:05

(自购自压) Leona Lewis - Spirit 引进版/WAV/整轨/LOG百度盘

[attachment=32577] [attachment=32578]
仅仅用了一年时间,这位2006年度英国“X-Factor”选秀大赛的冠军Leona Lewis就凭借她的处子专辑《Spirit》改写了Arctic Monkeys去年创下的纪录。本周,Leona Lewis的这张《Spirit》在英国发行第一周内的销量达到37万5千张,超越了去年年初Arctic Monkeys的处子专辑《Whatever People Say I Am, That's What I'm Not》所创下的36万3千张的销量纪录,成为英国流行音乐专辑榜历史上最热销的处子专辑。当然,凭借如此骄人的成绩,《Spirit》在本周的英国专辑榜中轻松问鼎。而在英国唱片市场单周专辑销量的总排行中(包括非处子专辑),《Spirit》的成绩仍位居第四名,落后于“绿洲”乐队(Oasis)的《Be Here Now》、“酷玩”乐队(Coldplay)的第三张专辑《X&Y》和Dido的第二张专辑《Life for Rent》。与此同时,在本周的英国单曲榜中,《Bleeding Love》连续第四周领跑,本周的英国榜完全是属于Leona Lewis一个人的。
  对于一名出道不久的新人来说,首张专辑就取得如此梦幻般的成绩是不可想象的。在参加“X-Factor”大赛之前,Leona只是一位普通的女服务员。在去年12月夺得第三届“X-Factor”冠军不久之后,Lewis的第一首个人单曲、翻唱第一届“美国偶像”大赛冠军凯丽·克拉克森(Kelly Clarkson)的《A Moment Like This》便获得了英国单曲榜的冠军。从诸多方面来看,“X-Factor”都是和“美国偶像”大赛密不可分的。和在美国举办的“美国偶像”大赛一样,英国地区的“X-Factor”大赛的总裁判长和执行制作人也都是西蒙·科威尔(Simon Cowell)。因此,Simon Cowell自己的喜好对这两项比赛最终冠军的归属和选手们以后的发展道路都有着直接的影响。 
  从2006年12月在“X-Factor”大赛中夺冠到这张专辑的面世,Leona Lewis让喜欢她的歌迷们等待了近一年时间,对于一名“偶像”大赛中诞生的歌手来说,一年的制作时间已经足够长了。从这张专辑来看,耐心准备的效果还是显而易见的,和“前辈”Kelly Clarkson以及Shayne Ward的处子作相比,《Spirit》的整体水平还是更胜一筹。除了备受欢迎的冠军单曲《Bleeding Love》之外,本张专辑中的《Homeless》、《Better In Time》、《Take A Bow》和《Here I Am》也都是很有实力打榜的单曲,Leona Lewis嗓音的表现力很强,不同类型的歌曲都能把握的很到位。


01 Bleeding Love
02 Better in Time
03 I Will Be
04 I'm You
05 Forgive Me
06 Misses Glass
07 Angel
08 The First Time Ever I Saw Your Face
09 Yesterday
10 Whatever It Takes
11 Take a Bow
12 Footprints in the Sand (Bonus Track)
13 Here I Am (Bonus Track)  

Exact Audio Copy V1.1 from 23. June 2015

EAC 抓取日志文件从16. 七月 2016, 18:52

Leona Lewis / Spirit

使用驱动器  :SlimtypeDVD A  DS8A5SH   Adapter: 1  ID: 0

读取模式      : 可靠Secure
使用精确流     : 是
清空音频缓存    : 否
使用 C2 指示器 : 否

组合读写偏移校正:             : 0
读取 Lead-In 和 Lead-Out : 否
用静音填充抓取中丢失偏移的采样       : 是
去除首尾静音块               : 否
在CRC 计算中使用了空样本       : 是
已用接口                  : Win NT 及 2000 本地 Win32 接口

所用输出模式: : 内部 WAV 函数
样本格式    : 44.100 Hz; 16 Bit; 立体声


已抓取 CD 的 TOC

     音轨 |    起始    |    长度    |  起始扇区  |  结束扇区  
    --------------------------------------------
      1 |  0:00.00 |  4:23.43 |      0 |  19767
      2 |  4:23.43 |  3:27.40 |  19768 |  35332
      3 |  7:51.08 |  3:50.17 |  35333 |  52599
      4 | 11:41.25 |  3:54.45 |  52600 |  70194
      5 | 15:35.70 |  3:54.53 |  70195 |  87797
      6 | 19:30.48 |  3:54.22 |  87798 | 105369
      7 | 23:24.70 |  3:59.45 | 105370 | 123339
      8 | 27:24.40 |  4:14.10 | 123340 | 142399
      9 | 31:38.50 |  4:52.48 | 142400 | 164347
     10 | 36:31.23 |  3:48.27 | 164348 | 181474
     11 | 40:19.50 |  3:43.32 | 181475 | 198231
     12 | 44:03.07 |  4:26.18 | 198232 | 218199
     13 | 48:29.25 |  4:09.58 | 218200 | 236932


范围状态及错误

已选择范围

     文件名 F:\上传抓轨\Leona Lewis - Spirit\Leona Lewis - Spirit.wav

     峰值电平 100.0 %
     抓取速度 2.8 X
     范围质量 100.0 %
     复制 CRC F9D23810
     复制成功

没有错误发生

状态报告结尾

---- CUETools DB Plugin V2.1.6

[CTDB TOCID: A26e85oitWON1kRXqXtLW04vKoc-] found
Submit result: A26e85oitWON1kRXqXtLW04vKoc- has been confirmed
Track | CTDB Status
  1   | (254/254) Accurately ripped
  2   | (253/254) Accurately ripped
  3   | (253/254) Accurately ripped
  4   | (253/254) Accurately ripped
  5   | (252/254) Accurately ripped
  6   | (251/254) Accurately ripped
  7   | (252/254) Accurately ripped
  8   | (254/254) Accurately ripped
  9   | (254/254) Accurately ripped
10   | (252/254) Accurately ripped
11   | (250/254) Accurately ripped
12   | (250/254) Accurately ripped
13   | (254/254) Accurately ripped

链接
此帖售价 5 酷币,已有 1 人购买
若发现会员采用欺骗的方法获取财富,请立刻举报,我们会对会员处以2-N倍的罚金,严重者封掉ID!
  密码
本部分内容设定了隐藏,需要回复后才能看到

mingmcc 2017-01-19 13:38
不错 很好听                                                  !

ppppfg 2021-03-20 18:04
很好听,下载不了吗

ppppfg 2021-03-20 18:09
好好好好好好好好好


查看完整版本: [-- (自购自压) Leona Lewis - Spirit 引进版/WAV/整轨/LOG百度盘 --] [-- top --]


Powered by PHPWind v7.5 SP3 Code ©2003-2010 PHPWind
Time 0.008767 second(s),query:3 Gzip enabled

You can contact us