查看完整版本: [-- (自购自压) Mariah Carey - E=mc2引进版第一版/WAV/整轨/LOG百度盘 --]

酷乐音乐社区 -> 无损欧美 -> (自购自压) Mariah Carey - E=mc2引进版第一版/WAV/整轨/LOG百度盘 [打印本页] 登录 -> 注册 -> 回复主题 -> 发表主题

wszdlh 2016-07-16 13:55

(自购自压) Mariah Carey - E=mc2引进版第一版/WAV/整轨/LOG百度盘

[attachment=32544]  [attachment=32545]

玛丽亚.凯莉 E=MC2爱的相对论》

爱因斯坦发明“相对论”改变全人类的生活模式,天后玛丽亚凯莉创造全球专辑《E=MC2爱的相对论》,拥有相同力量震撼全球乐坛。



玛丽 亚·凯莉以全球累积超过1亿6千万张的专辑/单曲/音乐录像带DVD销售以及来自美国唱片工会所颁发的81张白金唱片销售认证,成为跨越20世纪与21世 纪流行乐坛最畅销的超级天后,她以包括"Don't Forget About Us"、"We Belong Together"、"One Sweet Day"、"Hero"、"Dreamlover"…等18首冠军曲成为史上拥有最多首冠军曲的歌手,累计冠军在位周数多达77周!生涯囊括5座格莱美 奖、8座全美音乐奖、Billboard杂志的跨世代艺人奖与世界音乐奖所颁发的千禧年最畅销女艺人大奖在内的一长串音乐大奖礼赞,她自出道以来就持续不 断的立下难以被超越的当代流行音乐里程碑。

继2005年全球狂销千万张的冠军大碟《我心无羁》之后,玛丽亚·凯莉在个人第11张专辑 “E=MC2”展现无比热能,专辑由她与Island Def Jam音乐集团总裁Antonio 'LA' Reid统筹执行制作,除了力邀前张专辑制作功臣Jermaine Dupri、Scott Storch、Bryan Michael Cox、James Poyser继续效力之外,还延揽黑眼豆豆合唱团创作首脑will.i.am、C. "Tricky" Stewart “Rihanna”、The-Dream “Mary J. Blige”、DJ Toomp “Kanye West”、Stargate “Beyonce”、Nate 'Danjahandz' Hills “Justin Timberlake”等黄金制作团队一起彩绘更缤纷的节奏。


专辑首支冠军单曲"Touch My Body"以甜蜜俏皮的感觉触动两性关系性感地带,在全美电台热烈回响下,顺利成为其歌唱生涯第18首冠军曲!专辑中还有多首玛丽亚凯莉释放动感魅力与情 歌杀伤力特质的佳作,像是与嘻哈全才艺人T-Pain合作的"Migrate",以及与旷课乐玩家Young Jeezy合作的"Side Effects",取样艾美奖影集《山街蓝调/Hill Street Blues》主题音乐的"I'll Be Lovin' U Long Time",都是舞动身躯的性感上选,而汲取节奏蓝调与放克元素的慢板小品"Love Story",展现高低音与真假音歌唱技巧的"Last Kiss",闪烁节奏蓝调光泽的摩登情歌"Bye Bye",弥漫着灵魂与福音气氛的感伤恋歌"I Wish You Well"则是表现不同情感浓度的浪漫情歌。



从最低音瞬间飙升八个高八度音的花腔,从荡气回肠的节奏蓝调情歌到挑逗欢愉的嘻哈派对歌,不管是任何歌唱音域或是音乐类型,都难不倒玛丽亚·凯莉!2008年,她将以最新大碟“E=MC2”彻底解放流行音乐,体现节奏与人声之间最完美的相对论。






01. MIGRATE 玩乐主义 FEATURING T-PAIN 跑趴 嘻哈全才艺人T-PAIN帮腔劲曲
02. I STAY IN LOVE 依然爱你
03. SIDE EFFECTS 失恋副作用 FEATURING YOUNG JEEZY 旷课乐玩家YOUNG JEEZY合作猛爆劲歌
04. LOVE STORY 爱情故事
05. I'LL BE LOVIN'U LONG TIME 爱你那么久
06. LAST KISS 最后一吻
07. THANX 4 NOTHIN 无从感激
08. O.O.C. 爱失控
09. FOR THE RECORD 爱情档案
10. BYE BYE 再见
11. I WISH YOU WELL 祝你安好



Exact Audio Copy V1.1 from 23. June 2015


EAC 抓取日志文件从16. 七月 2016, 13:26


Mariah Carey / E=mc2


使用驱动器  :SlimtypeDVD A  DS8A5SH   Adapter: 1  ID: 0


读取模式      : 可靠Secure
使用精确流     : 是
清空音频缓存    : 否
使用 C2 指示器 : 否


组合读写偏移校正:             : 0
读取 Lead-In 和 Lead-Out : 否
用静音填充抓取中丢失偏移的采样       : 是
去除首尾静音块               : 否
 在CRC 计算中使用了空样本       : 是
已用接口                  : Win NT 及 2000 本地 Win32 接口


所用输出模式: : 内部 WAV 函数
样本格式    : 44.100 Hz; 16 Bit; 立体声




已抓取 CD 的 TOC


     音轨 |    起始    |    长度    |  起始扇区  |  结束扇区  
    --------------------------------------------
      1 |  0:00.00 |  4:17.67 |      0 |  19341 
      2 |  4:17.67 |  3:32.00 |  19342 |  35241 
      3 |  7:49.67 |  4:22.05 |  35242 |  54896 
      4 | 12:11.72 |  3:56.03 |  54897 |  72599 
      5 | 16:08.00 |  3:01.02 |  72600 |  86176 
      6 | 19:09.02 |  3:36.23 |  86177 | 102399 
      7 | 22:45.25 |  3:05.25 | 102400 | 116299 
      8 | 25:50.50 |  3:26.37 | 116300 | 131786 
      9 | 29:17.12 |  3:26.23 | 131787 | 147259 
     10 | 32:43.35 |  4:26.62 | 147260 | 167271 
     11 | 37:10.22 |  4:35.34 | 167272 | 187930 




范围状态及错误


已选择范围


     文件名 F:\上传抓轨\Mariah Carey - E=mc2\Mariah Carey - E=mc2.wav


     峰值电平 100.0 %
     抓取速度 2.5 X
     范围质量 100.0 %
     复制 CRC 0A2507EC
     复制成功


没有错误发生


状态报告结尾


---- CUETools DB Plugin V2.1.6


[CTDB TOCID: MUH5J9fzklFnF1RMa0mO4fch1_o-] disk not present in database
Submit result: MUH5J9fzklFnF1RMa0mO4fch1_o- has been uploaded




地址:
此帖售价 3 酷币,已有 1 人购买
若发现会员采用欺骗的方法获取财富,请立刻举报,我们会对会员处以2-N倍的罚金,严重者封掉ID!
 提取码:
本部分内容设定了隐藏,需要回复后才能看到



meifangx3 2018-05-08 06:12
少了最好听的那首了

meifangx3 2022-05-15 17:28
可惜删歌了,不然也是不错的生产线


查看完整版本: [-- (自购自压) Mariah Carey - E=mc2引进版第一版/WAV/整轨/LOG百度盘 --] [-- top --]


Powered by PHPWind v7.5 SP3 Code ©2003-2010 PHPWind
Time 0.013328 second(s),query:3 Gzip enabled

You can contact us