查看完整版本: [-- [自购自压]Jennifer Lopez《This Is Me...Then》2002.11.19/WAV整轨/481M/百度云盘 --]

酷乐音乐社区 -> 无损欧美 -> [自购自压]Jennifer Lopez《This Is Me...Then》2002.11.19/WAV整轨/481M/百度云盘 [打印本页] 登录 -> 注册 -> 回复主题 -> 发表主题

georgekwo 2014-02-06 15:49

[自购自压]Jennifer Lopez《This Is Me...Then》2002.11.19/WAV整轨/481M/百度云盘

[attachment=24870]

[attachment=24871]

[attachment=24872]

[attachment=24873]

专辑名称:This Is Me...Then
歌手姓名:Jennifer Lopez
制作发行:Epic
发行时间:2002年11月19日
专辑语言:英语

专辑简介:
  三张专辑创下全球两千五百万销售佳绩,流行天后的实力众所皆知! 
  新作《This is Me...Then》是她对Hip-Hop、R&B、Pop及拉丁音乐的热情释放!Jennifer Lopez紧接着以她的最新专辑《This Is Me...Then》继续以音乐传达她的讯息,理所当然地,Jennifer Lopez的最新专辑可谓为她个人内心世界与心理现状的印证实录。而她一贯轻薄纤细的温柔声线也较以往更为明显。似乎是她潜藏于心理层面的新发现也是展露她多方才华的新方向。
  首支单曲并且在音乐录影带中由未婚夫班艾佛列克与其忘我演出的《Jenny From The Block》,旋律取样自KRS-One的《South Bronx》及The Beanuts的《Watch Out Now》,邀来纽约饶舌名团The LOX成员中的Jadakiss 及Styles一同畅快吐出不想被名利冲昏头的想法——“别被我亮丽的外表影响,我还是街头的珍妮,以前默默无名,现在功成名就,不管我到哪里都不会忘记我的出身”;女人贵自觉,身边宁愿没男人也要活出自己,珍妮佛与饶舌大将LL Cool J连袂演出《All I Have》直言大女人主义;勇敢挥别错爱,敢爱敢恨的珍妮佛与饶舌当红炸子鸡Nas传神诠释《I'm Gonna Be Alright》;而新歌中最引人注目的是珍妮佛献给未婚夫的《Dear Ben》,为两人的情感状态作了最动人的表白。 《This Is Me...Then》这张专辑宛若一段公路旅程,一次家族共享的假期,一种重新聚合的感觉,一场婚礼,一场盛大热闹的生日派对也好比摩登都会中的喧闹夜晚,一切的一切,集具一方成为现在的Jennifer Lopez!

专辑曲目:
01. Still
02. Loving You
03. I'm Glad
04. The One
05. Dear Ben
06. All I Have (featuring LL Cool J)
07. Jenny From The Block (featuring Styles and Jadakiss)
08. Again
09. You Belong To Me
10. I've Been Thinkin'
11. Baby I Love You!
Bonus Tracks
12. The One (version 2)
13. I'm Gonna Be Alright (Trackmasters Remix featuring Nas)


Exact Audio Copy V1.0 beta 3 from 29. August 2011

EAC 抓取日志文件从5. 二月 2014, 18:32

未知艺术家 / 未知标题

使用驱动器  :PIONEER DVD-RW  DVR-220L   Adapter: 2  ID: 1

读取模式      : 可靠Secure
使用精确流     : 是
清空音频缓存    : 是
使用 C2 指示器 : 否

读取偏移校正:               : 6
读取 Lead-In 和 Lead-Out : 否
用静音填充抓取中丢失偏移的采样       : 是
去除首尾静音块               : 否
 在CRC 计算中使用了空样本       : 是
已用接口                  : Win NT 及 2000 本地 Win32 接口

所用输出模式: : 内部 WAV 函数
样本格式    : 44.100 Hz; 16 Bit; 立体声

已抓取 CD 的 TOC

     音轨 |    起始    |    长度    |  起始扇区  |  结束扇区  
    --------------------------------------------
      1 |  0:00.00 |  3:40.42 |      0 |  16541 
      2 |  3:40.42 |  3:45.30 |  16542 |  33446 
      3 |  7:25.72 |  3:42.03 |  33447 |  50099 
      4 | 11:08.00 |  3:36.17 |  50100 |  66316 
      5 | 14:44.17 |  3:14.15 |  66317 |  80881 
      6 | 17:58.32 |  4:14.35 |  80882 |  99966 
      7 | 22:12.67 |  3:08.73 |  99967 | 114139 
      8 | 25:21.65 |  5:47.27 | 114140 | 140191 
      9 | 31:09.17 |  3:30.13 | 140192 | 155954 
     10 | 34:39.30 |  4:41.65 | 155955 | 177094 
     11 | 39:21.20 |  4:28.32 | 177095 | 197226 
     12 | 43:49.52 |  3:31.30 | 197227 | 213081 
     13 | 47:21.07 |  2:52.18 | 213082 | 225999 

范围状态及错误

已选择范围

     文件名 F:\Music\to be uploaded\Jennifer Lopez - This Is Me...Then (整轨WAV)\未知艺术家 - 未知标题.wav

     峰值电平 98.8 %
     抓取速度 6.9 X
     范围质量 100.0 %
     复制 CRC A26929BE
     复制成功

没有错误发生

AccurateRip 摘要

音轨  1  精确地校准抓取  79)  [6C1F5AFA]  (AR v2)
音轨  2  精确地校准抓取  76)  [5F1B3837]  (AR v2)
音轨  3  精确地校准抓取  76)  [5D982BF8]  (AR v2)
音轨  4  精确地校准抓取  79)  [7AE1109D]  (AR v2)
音轨  5  精确地校准抓取  79)  [FF63C459]  (AR v2)
音轨  6  精确地校准抓取  79)  [4CDEBAF9]  (AR v2)
音轨  7  精确地校准抓取  80)  [2FA4F46B]  (AR v2)
音轨  8  精确地校准抓取  77)  [EC23B158]  (AR v2)
音轨  9  精确地校准抓取  78)  [5033E059]  (AR v2)
音轨 10  精确地校准抓取  76)  [22EB1A82]  (AR v2)
音轨 11  精确地校准抓取  77)  [75B7A331]  (AR v2)
音轨 12  精确地校准抓取  76)  [7DFF080F]  (AR v2)
音轨 13  精确地校准抓取  75)  [C071DFAC]  (AR v2)

所有音轨精确校准抓取

状态报告结尾


下载地址:
此帖售价 5 酷币,已有 2 人购买
若发现会员采用欺骗的方法获取财富,请立刻举报,我们会对会员处以2-N倍的罚金,严重者封掉ID!


解压密码:
本部分内容设定了隐藏,需要回复后才能看到


imxgl 2014-02-16 20:28
好碟,有空来下载。

meifangx3 2020-06-30 23:05
这张身材挺丰满

meifangx3 2022-05-15 17:26
谢谢来下载了


查看完整版本: [-- [自购自压]Jennifer Lopez《This Is Me...Then》2002.11.19/WAV整轨/481M/百度云盘 --] [-- top --]


Powered by PHPWind v7.5 SP3 Code ©2003-2010 PHPWind
Time 0.009590 second(s),query:3 Gzip enabled

You can contact us