查看完整版本: [-- 自压 Jason Mraz-We Sing,We Dance,We Steal Things [Limited Edition] ALBUM+EPS 2008 APE整轨X2/611M --]

酷乐音乐社区 -> 无损欧美 -> 自压 Jason Mraz-We Sing,We Dance,We Steal Things [Limited Edition] ALBUM+EPS 2008 APE整轨X2/611M [打印本页] 登录 -> 注册 -> 回复主题 -> 发表主题

<<   1   2  >>  Pages: ( 2 total )

vincham 2011-12-02 15:24

自压 Jason Mraz-We Sing,We Dance,We Steal Things [Limited Edition] ALBUM+EPS 2008 APE整轨X2/611M



专辑英文名: We Sing, We Dance, We Steal Things (Limited Edition)
专辑中文名: 活出自我(珍藏版)
歌手: Jason Mraz
音乐风格: 流行
资源格式: APE
发行时间: 2008年05月13日

「音乐大玩童」杰森玛耶兹Jason Mraz,於2002年、2005年分别推出了其个人的首张专辑"Waiting For My Rocket To Come"与第二张原创大碟"Mr. A-Z",便以他随性的创作态度、擅长把玩文字的创意,吸引了许多跨界乐迷,当中的「The Remedy (I Won't Worry)」、「You and I Both」、「Wordplay」等也都成为传唱度极高的单曲,让他展开无数场现场表演以及一连串的宣传行程。结束行程后原本想休息一年的他,却在稍作休息之后,奇妙地产生了源源不绝的创作灵感,并让他在这休息的过程里,慢慢地从自我了解到自我强化,一直到自我成长,而这些崭新的音乐能量,自然而然地匯集结成其第三张原创专辑"活出自我(We Sing, We Dance, We Steal Things)"!

  "活出自我" 专辑以「Make It Mine」一曲略具戏剧化地开场,那积极的喜悦、真挚的热情、无虑的自在,我们都感受到了;如果说,想把大自然写成一首歌,「I'm Yours」就是最好的问候语,而Jason Mraz则会是最佳的翻译官;至於部落格女孩Colbie Caillat和Jason所合作的温暖情歌「Lucky」,则让幸福以最简单的方式,提供随身携带的服务;而心灵投手James Morrison和Jason,更用彼此不同的声线,编织出「Details In The Fabric」的纹理分明;随著简单的吉他声,一同来到夕阳满溢的时间迴廊里,逆著时光的方向走,一个男人拉开了身体的拉鍊,发现里面住著一位受了伤的小男孩,双手紧握著「Love For A Child」这张泛黄的相片!每个人的心里都住著一个孩子,曾经不想长大的Jason,这一次终於弯下腰来,牵起那个跟他有著一样微笑的孩子,手拉著手一起走出自在的步伐。

  "活出自我"於2008年5月发行后,首週入榜即拿下全美专辑排行Top 3,空降网路专辑销售#1宝座,并在韩国、新加坡、澳洲、瑞典、挪威等国拿下金唱片认证,为感谢全球歌迷的热烈支持,特别推出此"豪华2CD+1DVD影音珍藏版",除CD1仍保有原专辑中所有歌曲,更将原专辑发售前只开放在Jason Mraz官网预购的"W Sing"、"We Dance"、"We Steal Things"三张EP中的所有歌曲全数放入CD 2,收录其在一些现场表演节目中演唱"活出自我"专辑中的歌曲,随性的Jason把这些歌曲赋予全新感受,像是较偏向轻鬆消暑的「I'm Yours」,瞬间变为温柔的抒情小品,也能让你温暖渡过冬天;另外也收进其在外巡迴经常演唱的歌曲「Mudhouse/Gypsy MC」,将蓝调与饶舌尽情融合玩弄。




DISC ONE:THE ALBUM

1. Make It Mine

2. I'm Yours

3. Lucky featuring Colbie Caillat

4. Butterfly

5. Live High

6. Love For A Child

7. Details in the Fabric featuring James Morrison

8. Coyotes

9. Only Human

10. The Dynamo Of Volition

11. If It Kills Me

12. A Beautiful Mess


DISC TWO:THE EPS

01. I'm Yours (From the Casa Nova Sessions)

02. Live High (From an Avocado Salad Session)

03. If It Kills Me (From the Casa Nova Sessions)

04. A Beautiful Mess (From a Raining Jane Session)

05. Make It Mine (From the Casa Nova Sessions)

06. Butterfly (From the Casa Nova Sessions)

07. Only Human (From The Casa Nova Sessions)

08. The Dynamo of Volition (From an All Night Session)

09. Love for a Child (From the Casa Nova Sessions)

10. Coyotes (From for a Girl In New York Sessions)

11. Man Gave Names to All The Animals (From the Gospel Collection Sessions)

12. Mudhouse/Gypsy MC (Live from Amsterdam)


附抓轨LOG:
THE ALBUM:
Exact Audio Copy V1.0 beta 3 from 29. August 2011

EAC 抓取日志文件从29. 十一月 2011, 11:52

Jason Mraz / We Sing, We Dance, We Steal Things

使用驱动器  :Optiarc DVD RW AD-7580S   Adapter: 1  ID: 0

读取模式      : 可靠Secure
使用精确流     : 是
清空音频缓存    : 否
使用 C2 指示器 : 否

组合读写偏移校正:             : 0
读取 Lead-In 和 Lead-Out : 否
用静音填充抓取中丢失偏移的采样       : 是
去除首尾静音块               : 否
在CRC 计算中使用了空样本       : 是
已用接口                  : Win NT 及 2000 本地 Win32 接口

所用输出模式:   : Monkey's Audio 无损编码器
已选比特率     : Fast Lossless Compression
质量        : 高
添加 ID3 标签 : 是
命令行压缩器    : D:\Program Files\Monkey's Audio\MAC.exe


已抓取 CD 的 TOC

     音轨 |    起始    |    长度    |  起始扇区  |  结束扇区  
    --------------------------------------------
      1 |  0:00.00 |  3:08.02 |      0 |  14101
      2 |  3:08.02 |  4:02.73 |  14102 |  32324
      3 |  7:11.00 |  3:09.47 |  32325 |  46546
      4 | 10:20.47 |  5:00.24 |  46547 |  69070
      5 | 15:20.71 |  4:12.30 |  69071 |  88000
      6 | 19:33.26 |  4:05.55 |  88001 | 106430
      7 | 23:39.06 |  5:45.53 | 106431 | 132358
      8 | 29:24.59 |  3:38.17 | 132359 | 148725
      9 | 33:03.01 |  4:02.52 | 148726 | 166927
     10 | 37:05.53 |  3:36.46 | 166928 | 183173
     11 | 40:42.24 |  4:33.49 | 183174 | 203697
     12 | 45:15.73 |  5:37.73 | 203698 | 229045


范围状态及错误

已选择范围

     文件名 D:\Jason Mraz - We Sing, We Dance, We Steal Things.wav

     峰值电平 99.9 %
     抓取速度 2.7 X
     范围质量 100.0 %
     复制 CRC A1A03F5F
     复制成功

没有错误发生

状态报告结尾

---- CUETools DB Plugin V2.1.3

[CTDB TOCID: 6dBLxM4kGjDY.bXz3QNw8H.LzYo-] found, Submit result: 6dBLxM4kGjDY.bXz3QNw8H.LzYo- has been confirmed
[4a7dd7b3] (86/86) Accurately ripped

THE EPS:
Exact Audio Copy V1.0 beta 3 from 29. August 2011

EAC 抓取日志文件从29. 十一月 2011, 0:30

Jason Mraz / We Sing, We Dance, We Steal Things [Limited Edition]

使用驱动器  :Optiarc DVD RW AD-7580S   Adapter: 1  ID: 0

读取模式      : 可靠Secure
使用精确流     : 是
清空音频缓存    : 否
使用 C2 指示器 : 否

组合读写偏移校正:             : 0
读取 Lead-In 和 Lead-Out : 否
用静音填充抓取中丢失偏移的采样       : 是
去除首尾静音块               : 否
在CRC 计算中使用了空样本       : 是
已用接口                  : Win NT 及 2000 本地 Win32 接口

所用输出模式:   : Monkey's Audio 无损编码器
已选比特率     : Fast Lossless Compression
质量        : 高
添加 ID3 标签 : 是
命令行压缩器    : D:\Program Files\Monkey's Audio\MAC.exe


已抓取 CD 的 TOC

     音轨 |    起始    |    长度    |  起始扇区  |  结束扇区  
    --------------------------------------------
      1 |  0:00.00 |  4:47.45 |      0 |  21569
      2 |  4:47.45 |  4:03.44 |  21570 |  39838
      3 |  8:51.14 |  5:01.31 |  39839 |  62444
      4 | 13:52.45 |  5:15.68 |  62445 |  86137
      5 | 19:08.38 |  3:24.66 |  86138 | 101503
      6 | 22:33.29 |  5:11.33 | 101504 | 124861
      7 | 27:44.62 |  4:48.60 | 124862 | 146521
      8 | 32:33.47 |  4:23.70 | 146522 | 166316
      9 | 36:57.42 |  3:53.14 | 166317 | 183805
     10 | 40:50.56 |  4:19.71 | 183806 | 203301
     11 | 45:10.52 |  4:18.05 | 203302 | 222656
     12 | 49:28.57 |  7:00.18 | 222657 | 254174


范围状态及错误

已选择范围

     文件名 D:\Jason Mraz - We Sing, We Dance, We Steal Things [Limited Edition].wav

     峰值电平 100.0 %
     抓取速度 2.8 X
     范围质量 100.0 %
     复制 CRC B7EC7272
     复制成功

没有错误发生

状态报告结尾

---- CUETools DB Plugin V2.1.3

[CTDB TOCID: J8k8D01vcR2F1SzPTqKPUE4sqRY-] database access error: The operation has timed out


此帖售价 12 酷币,已有 34 人购买
若发现会员采用欺骗的方法获取财富,请立刻举报,我们会对会员处以2-N倍的罚金,严重者封掉ID!

ayajianga 2011-12-02 15:46
莫非是沙發……!!
謝謝樓主奉獻~~~

wodemake2009 2011-12-02 16:07
不要钱的么?

vincham 2011-12-02 17:54
我是新人,只能感慨在这里发帖真的有点困难。图片都是要弄链接而不是直接上传的,到现在都没搞定。
还有想出售也不知道该怎么操作,求指导。

elevenstar 2011-12-02 18:51
好喜欢那首i'm yours啊 最近还在找好资源 没想到就有了

vincham 2011-12-02 19:23
正在上传网盘,敬请期待。

vincham 2011-12-02 21:41
辛苦了整个晚上,终于正确地发好帖子,大家要多多支持啊!

wodemake2009 2011-12-02 22:03
我之前付了12币!现在怎么还要付款?

vincham 2011-12-02 22:17
是这样的,之前一直在摸索编辑,没弄好。
你给个邮箱我发地址给你。

vincham 2011-12-02 22:22
抱歉,请留个邮箱,我把下载地址发给你,之前的文件已经损坏。

6191437 2011-12-03 18:06
这是什么版本呢啊 怎么一起发了两张

vincham 2011-12-03 19:47
帖子有介绍的哇,珍藏版。一张专辑,一张EP,外加一张DVD。当然,这里只有专辑和EP两张。

kon314 2011-12-04 08:10
感覺不錯呢~~下了

stars0629 2011-12-05 07:39
贵了,纯支持新人发帖吧。。。。

vincham 2011-12-05 11:26
这张砖的评价不是一般的高,珍藏版更是物以稀为贵,现在市面上基本找不到了。
总之,物有所值吧。

keunglai 2011-12-07 16:30
很好的專輯, 謝謝

umahaul 2011-12-09 00:20
收下了 谢谢

andy8437 2011-12-25 13:13
支持了 这张很喜欢很喜欢

andy8437 2011-12-25 13:14
非常喜欢的一张专辑啊 太好了终于找到了

andy8437 2011-12-25 13:20
唉 太贵了 买不起呢

fantasy9831 2011-12-26 21:53
支持一下,现在能下载了么?

vincham 2011-12-26 22:29
能,下载不了随时M我。

eixianfeng 2012-01-12 10:17
找了好久的专辑啊

liuhong72 2012-03-14 20:49
好东西也真是贵啊

呆呆生活 2012-03-21 20:37
    太贵··啦···还是买了····

lonye 2012-04-02 22:41
哈~下来听听,据说评价蛮高的~谢谢~

leonblue903 2012-04-06 10:19
好喜欢那首i'm yours啊

whwalex 2012-04-15 10:21
好歌不怕常听!

ts00143949 2012-04-27 01:45
Thank You Very Much

airmaster218 2012-05-01 23:50
看着很有感觉的CD
下来听下怎么样
感谢分享

kywt 2012-05-16 10:15
希望能下哦,多谢了

tanker 2012-05-18 21:01
原创作品啊,大力支持。

second885 2012-05-23 18:53
多谢楼主分享

cuiyan869 2012-06-09 12:38
i am yours

cchowl 2012-09-07 13:24
最喜欢的是butterfly,不过为啥没人气呢

codysnake 2012-09-23 09:14
很久的帖子了吧,一定要能下载啊啊啊!!!花了我12大洋!!保佑楼主!

harryleej 2012-09-26 04:08
I'm yours很好聽啊~ 感覺是很棒的歌手 準備仔細聽聽他所有的作品 謝謝樓主!

likebin 2013-01-02 18:23
謝謝樓主奉獻~~~  

pejag 2013-01-04 11:10
謝謝樓主奉獻~~~

c1ing 2013-01-21 15:41
这个是经典 必须下 有木有。

226802919 2013-01-23 10:15
超正点.   很好的歌手

dengzj 2013-03-26 00:49
这个可以有

anti 2013-04-18 12:54
不错的歌听听看!

731306187 2013-06-02 21:18
贵啊 有点消费不起

407376895 2013-07-05 09:20
下载

auwain 2013-07-08 19:54
thank you so much

lyndsay_d 2013-08-12 08:47
very nice collection

flychinos 2013-09-27 20:33
好久以前了,不知道还能不能用

yxxcqyyc 2014-01-04 18:40
不要钱的么?

ted680 2014-09-05 22:19
回复看看啊哈哈


查看完整版本: [-- 自压 Jason Mraz-We Sing,We Dance,We Steal Things [Limited Edition] ALBUM+EPS 2008 APE整轨X2/611M --] [-- top --]


Powered by PHPWind v7.5 SP3 Code ©2003-2010 PHPWind
Time 0.011921 second(s),query:4 Gzip enabled

You can contact us