登录注册
社区应用 最新帖子 获取酷币 勋章中心 会员列表 统计排行
主题 : (自购自压) 萧亚轩 - 1087 引进版/WAV/整轨/LOG百度盘
wszdlh 离线
级别: 精灵王
显示用户信息 
0楼  发表于: 2016-07-16  

(自购自压) 萧亚轩 - 1087 引进版/WAV/整轨/LOG百度盘

管理提醒: 本帖被 coolhc 执行加亮操作(2016-07-24)


  

萧亚轩06新专辑:1087 (1CD)
elva萧亚轩暌违3年后,终于要在12月22日推出最新国语大碟《1087》,为了迎接这个千呼万唤声中即将到来“1087”天的重要发片日,唱片公司特别大手笔以1087颗火红气球布置全办公室,顾名思义就是elva聚集1087天的能量后开启另一波流行大fun风,呈现她崭新多元的音乐新面貌。

01 表白
02 然后
03 Honey Honey Honey
04 不远
05 LoVe
06 Free
07 我的男朋友
08 代言人
09 后来的我们
10 熄灯
11 You and me
12 我要的世界+恋爱疯

  Exact Audio Copy V1.1 from 23. June 2015

EAC 抓取日志文件从16. 七月 2016, 21:18

萧亚轩 / 1087

使用驱动器  :SlimtypeDVD A  DS8A5SH   Adapter: 1  ID: 0

读取模式      : 可靠Secure
使用精确流     : 是
清空音频缓存    : 否
使用 C2 指示器 : 否

组合读写偏移校正:             : 0
读取 Lead-In 和 Lead-Out : 否
用静音填充抓取中丢失偏移的采样       : 是
去除首尾静音块               : 否
在CRC 计算中使用了空样本       : 是
已用接口                  : Win NT 及 2000 本地 Win32 接口

所用输出模式: : 内部 WAV 函数
样本格式    : 44.100 Hz; 16 Bit; 立体声


已抓取 CD 的 TOC

     音轨 |    起始    |    长度    |  起始扇区  |  结束扇区  
    --------------------------------------------
      1 |  0:00.00 |  3:29.30 |      0 |  15704
      2 |  3:29.30 |  3:46.22 |  15705 |  32676
      3 |  7:15.52 |  3:43.28 |  32677 |  49429
      4 | 10:59.05 |  4:00.42 |  49430 |  67471
      5 | 14:59.47 |  3:07.63 |  67472 |  81559
      6 | 18:07.35 |  3:24.47 |  81560 |  96906
      7 | 21:32.07 |  3:57.18 |  96907 | 114699
      8 | 25:29.25 |  4:21.72 | 114700 | 134346
      9 | 29:51.22 |  4:20.63 | 134347 | 153909
     10 | 34:12.10 |  3:53.40 | 153910 | 171424
     11 | 38:05.50 |  3:48.70 | 171425 | 188594
     12 | 41:54.45 |  9:14.35 | 188595 | 230179


范围状态及错误

已选择范围

     文件名 F:\上传抓轨\萧亚轩 - 1087\萧亚轩 - 1087.wav

     峰值电平 100.0 %
     抓取速度 5.2 X
     范围质量 100.0 %
     复制 CRC 549419BB
     复制成功

没有错误发生

状态报告结尾

---- CUETools DB Plugin V2.1.6

[CTDB TOCID: 315_t_uxcDXCFM_vWQFxHgQuVA4-] found
Submit result: 315_t_uxcDXCFM_vWQFxHgQuVA4- has been confirmed
Track | CTDB Status
  1   | ( 6/19) Accurately ripped
  2   | ( 6/19) Accurately ripped
  3   | ( 6/19) Accurately ripped
  4   | ( 6/19) Accurately ripped
  5   | ( 6/19) Accurately ripped
  6   | ( 6/19) Accurately ripped
  7   | ( 6/19) Accurately ripped
  8   | ( 6/19) Accurately ripped
  9   | ( 6/19) Accurately ripped
10   | ( 6/19) Accurately ripped
11   | ( 5/19) Accurately ripped
12   | ( 6/19) Accurately ripped

链接
此帖售价 5 酷币,已有 8 人购买
若发现会员采用欺骗的方法获取财富,请立刻举报,我们会对会员处以2-N倍的罚金,严重者封掉ID!
  密码
本部分内容设定了隐藏,需要回复后才能看到
清空我的评分动态本帖最近评分记录: 共2条评分记录
coolhc 酷币 +70 2016-07-24 优秀文章
coolhc 威望 +2 2016-07-24 原创内容
隐藏评分记录
级别: 新手上路
显示用户信息 
1楼  发表于: 2016-07-18  
:(自购自压) 萧亚轩 - 1087 引进版/WAV/整轨/LOG
清空我的评分动态本帖最近评分记录: 共1条评分记录
coolhc 酷币 -20 2016-07-20 恶意灌水,警告一次
隐藏评分记录
a391331833 离线
级别: 侠客
显示用户信息 
2楼  发表于: 2016-08-01  
好东西下了~~~~~~~~~
zouchen123 离线
级别: 骑士
显示用户信息 
3楼  发表于: 2016-08-02  
这张很好帖!
cyw389 离线
级别: 圣骑士
显示用户信息 
4楼  发表于: 2016-08-14  
谢谢楼主分享好音乐
hepeisheng 离线
级别: 侠客
显示用户信息 
5楼  发表于: 2017-04-25  
看看图片是什么版本
battlebunny 离线
级别: 精灵王
显示用户信息 
6楼  发表于: 2017-08-07  
感谢分享~
dickjay 离线
级别: 侠客
显示用户信息 
7楼  发表于: 2017-08-15  
好东西下了~~~~~~~~~
kingwen 离线
级别: 骑士
显示用户信息 
8楼  发表于: 02-09  
找不到台版,有引进版还算满足了
描述
快速回复

验证问题:
123456+654321=? 正确答案:777777
按"Ctrl+Enter"直接提交