登录注册
社区应用 最新帖子 获取酷币 勋章中心 会员列表 统计排行
主题 : (自购自压) 光良 - 不会分离 引进版/WAV/整轨/LOG百度盘
wszdlh 离线
级别: 精灵王
显示用户信息 
0楼  发表于: 2016-07-16  

(自购自压) 光良 - 不会分离 引进版/WAV/整轨/LOG百度盘

管理提醒: 本帖被 coolhc 执行加亮操作(2016-07-20)




首张创作纪录辑《约定》至今暌违近两年的时间,期间光良进行着世界巡回演唱会,同时间也筹备着他的全新专辑,一直在生活中寻找创作和音乐灵感的他, 将他这些日子以来的生活体会、点滴感想,累积在创作中,用他最擅长的情歌创作完整抒发。
这一张名为《不会分离》的新专辑,给你十首深刻感人的情歌,给你一个真诚不变的光良。这次光良在新专辑中找来不同地区的音乐人合作,期待有不同的音乐火花产生。主打歌“不会分离”的音乐性很强,而接力主打“烟火”是继“童话”和“约定”后歌迷们会喜欢的旋律。
随豪华影音版附赠主打歌“不会分离”MV及拍摄幕后花絮DVD,在MV中光良邀请房思瑜担任女主角,两人分别饰演音乐才子与舞蹈学生,因遇上车祸令她不能再跳舞,而男主角则要远赴外地,两人上演一幕雨中分手的戏分。


CD
01烟火
02不会分离
03I Miss you
04女孩别哭
05风雨同路
06爱可以点亮整个世界
07 am who I am我就是我
08双子星
09住在遥远的星球
10惊叹号
Exact Audio Copy V1.1 from 23. June 2015

EAC 抓取日志文件从16. 七月 2016, 18:11

光良 / 不会分离

使用驱动器  :SlimtypeDVD A  DS8A5SH   Adapter: 1  ID: 0

读取模式      : 可靠Secure
使用精确流     : 是
清空音频缓存    : 否
使用 C2 指示器 : 否

组合读写偏移校正:             : 0
读取 Lead-In 和 Lead-Out : 否
用静音填充抓取中丢失偏移的采样       : 是
去除首尾静音块               : 否
在CRC 计算中使用了空样本       : 是
已用接口                  : Win NT 及 2000 本地 Win32 接口

所用输出模式: : 内部 WAV 函数
样本格式    : 44.100 Hz; 16 Bit; 立体声


已抓取 CD 的 TOC

     音轨 |    起始    |    长度    |  起始扇区  |  结束扇区  
    --------------------------------------------
      1 |  0:00.00 |  4:10.56 |      0 |  18805
      2 |  4:10.56 |  5:50.61 |  18806 |  45116
      3 | 10:01.42 |  4:33.71 |  45117 |  65662
      4 | 14:35.38 |  4:17.55 |  65663 |  84992
      5 | 18:53.18 |  4:21.21 |  84993 | 104588
      6 | 23:14.39 |  4:14.29 | 104589 | 123667
      7 | 27:28.68 |  3:54.09 | 123668 | 141226
      8 | 31:23.02 |  4:02.53 | 141227 | 159429
      9 | 35:25.55 |  4:47.24 | 159430 | 180978
     10 | 40:13.04 |  3:44.00 | 180979 | 197778


范围状态及错误

已选择范围

     文件名 F:\上传抓轨\光良 - 不会分离\光良 - 不会分离.wav

     峰值电平 100.0 %
     抓取速度 4.9 X
     范围质量 99.9 %
     复制 CRC 90E3CA07
     复制成功

没有错误发生

状态报告结尾

---- CUETools DB Plugin V2.1.6

[CTDB TOCID: oM6_MSpp4qFbu.uGKdiVyT7LrOk-] found
Submit result: oM6_MSpp4qFbu.uGKdiVyT7LrOk- has been confirmed
Track | CTDB Status
  1   | (6/6) Accurately ripped
  2   | (6/6) Accurately ripped
  3   | (6/6) Accurately ripped
  4   | (6/6) Accurately ripped
  5   | (6/6) Accurately ripped
  6   | (6/6) Accurately ripped
  7   | (6/6) Accurately ripped
  8   | (6/6) Accurately ripped
  9   | (6/6) Accurately ripped
10   | (6/6) Accurately ripped



链接
此帖售价 3 酷币,已有 8 人购买
若发现会员采用欺骗的方法获取财富,请立刻举报,我们会对会员处以2-N倍的罚金,严重者封掉ID!
密码
本部分内容设定了隐藏,需要回复后才能看到
清空我的评分动态本帖最近评分记录: 共2条评分记录
coolhc 酷币 +70 2016-07-20 优秀文章
coolhc 威望 +2 2016-07-20 原创内容
隐藏评分记录
gaopin 离线
级别: 侠客
显示用户信息 
1楼  发表于: 2016-07-18  
来洗版这张专辑!!
batttttt 离线
级别: 精灵王
显示用户信息 
2楼  发表于: 2016-07-18  
光良啥时候再出新专辑啊?
BaTtTtTt
a391331833 离线
级别: 侠客
显示用户信息 
3楼  发表于: 2016-08-01  
在更新~~~~~~~~
kclou 离线
级别: 未验证会员
显示用户信息 
4楼  发表于: 2017-02-10  
唔該樓住,這麼多好東西分享!
kmsch 离线
级别: 精灵王
显示用户信息 
5楼  发表于: 2017-03-14  
谢谢LZ分享~!!!!
hereame 离线
级别: 圣骑士
显示用户信息 
6楼  发表于: 2017-03-15  
无印良品分开后光良的发展还不错
battlebunny 离线
级别: 精灵王
显示用户信息 
7楼  发表于: 2017-03-31  
  
臭鸡排 离线
级别: 骑士
显示用户信息 
8楼  发表于: 02-13  
就是喜欢这张专辑
炫舞季 离线
级别: 骑士
显示用户信息 
9楼  发表于: 04-17  
感谢分享 光良的音乐 很好听的歌一直以来
描述
快速回复

验证问题:
123456+654321=? 正确答案:777777
按"Ctrl+Enter"直接提交