登录注册
社区应用 最新帖子 获取酷币 勋章中心 会员列表 统计排行
主题 : (自购自压) 周杰伦 - 七里香 引进版/WAV/整轨/LOG百度盘
wszdlh 离线
级别: 精灵王
显示用户信息 
0楼  发表于: 2016-07-16  

(自购自压) 周杰伦 - 七里香 引进版/WAV/整轨/LOG百度盘

管理提醒: 本帖被 coolhc 执行加亮操作(2016-07-17)


  
这次引用了诗人席幕蓉名诗《七里香》作为新专辑名称,周杰伦以往每一次的专辑名称都给了歌迷许多想象空间,也给了大家许多惊叹号。这次也许并不令人惊喜。但是周杰伦自有说法:“之所以要把新专辑定名为《七里香》,是因为对这一次专辑的音乐充满自信,希望大家能把注意力焦点放在音乐上,将话题回归到音乐上。
    这张《七里香》仍是周杰伦与最佳拍档方文山合作的作品。在炎热的夏天听《七里香》,有一种如沐清风的凉爽。

内容简介
    《周杰伦:七里香》是一首带有东方气息的抒情摇滚曲风。诗词里写着:“雨下整夜我的爱溢出就像雨水,窗台蝴蝶像诗里纷飞的美丽章节,我接着写把永远爱你写进诗的结尾,你是我唯一想要的了解。那饱满的稻穗幸福了这个季节,而你的脸颊像田里熟透的蕃茄,你突然对我说七里香的名字很美,我此刻却只想亲吻你倔将的嘴……”

曲目
01 我的地盘 4:00
02 七里香 4:56
03 借口 4:16
04 外婆 4:01
05 将军 3:20
06 搁浅 3:56
07 乱舞春秋 4:37
08 困兽之斗 4:28
09 园游会 4:10
10 止战之殇 4:34

Exact Audio Copy V1.1 from 23. June 2015

EAC 抓取日志文件从16. 七月 2016, 14:59

周杰伦 / 七里香

使用驱动器  :SlimtypeDVD A  DS8A5SH   Adapter: 1  ID: 0

读取模式      : 可靠Secure
使用精确流     : 是
清空音频缓存    : 否
使用 C2 指示器 : 否

组合读写偏移校正:             : 0
读取 Lead-In 和 Lead-Out : 否
用静音填充抓取中丢失偏移的采样       : 是
去除首尾静音块               : 否
在CRC 计算中使用了空样本       : 是
已用接口                  : Win NT 及 2000 本地 Win32 接口

所用输出模式: : 内部 WAV 函数
样本格式    : 44.100 Hz; 16 Bit; 立体声


已抓取 CD 的 TOC

     音轨 |    起始    |    长度    |  起始扇区  |  结束扇区  
    --------------------------------------------
      1 |  0:00.00 |  4:02.48 |      0 |  18197
      2 |  4:02.48 |  4:57.15 |  18198 |  40487
      3 |  8:59.63 |  4:18.20 |  40488 |  59857
      4 | 13:18.08 |  4:02.39 |  59858 |  78046
      5 | 17:20.47 |  3:22.16 |  78047 |  93212
      6 | 20:42.63 |  3:58.10 |  93213 | 111072
      7 | 24:40.73 |  4:37.63 | 111073 | 131910
      8 | 29:18.61 |  4:27.11 | 131911 | 151946
      9 | 33:45.72 |  4:13.42 | 151947 | 170963
     10 | 37:59.39 |  4:34.68 | 170964 | 191581


范围状态及错误

已选择范围

     文件名 F:\上传抓轨\周杰伦 - 七里香\周杰伦 - 七里香.wav

     峰值电平 100.0 %
     抓取速度 4.9 X
     范围质量 99.9 %
     复制 CRC 6E49F833
     复制成功

没有错误发生

状态报告结尾

---- CUETools DB Plugin V2.1.6

[CTDB TOCID: ubs.emT5dkgaRaRR0HNylq92ZSw-] found
Submit result: already submitted
Track | CTDB Status
  1   | (186/217) Accurately ripped
  2   | (186/217) Accurately ripped
  3   | (185/217) Accurately ripped
  4   | (185/217) Accurately ripped
  5   | (186/217) Accurately ripped
  6   | (186/217) Accurately ripped
  7   | (186/217) Accurately ripped
  8   | (186/217) Accurately ripped
  9   | (186/217) Accurately ripped
10   | (214/217) Accurately ripped


链接
此帖售价 3 酷币,已有 11 人购买
若发现会员采用欺骗的方法获取财富,请立刻举报,我们会对会员处以2-N倍的罚金,严重者封掉ID!
   密码
本部分内容设定了隐藏,需要回复后才能看到
清空我的评分动态本帖最近评分记录: 共2条评分记录
coolhc 威望 +2 2016-07-17 优秀文章
coolhc 酷币 +80 2016-07-17 原创内容
隐藏评分记录
a391331833 离线
级别: 侠客
显示用户信息 
1楼  发表于: 2016-08-01  
好听`````
nhin2804 离线
级别: 圣骑士
显示用户信息 
2楼  发表于: 2016-08-03  
先收下了啦
c1ing 离线
级别: 精灵王

显示用户信息 
3楼  发表于: 2016-08-28  
支持周杰伦
好爱太多 能力太小~
比你牛的人还比你努力!
特先生 离线
级别: 骑士
显示用户信息 
4楼  发表于: 2017-04-13  
回 楼主(wszdlh) 的帖子
多谢分享
特先生
飝·龘 离线
级别: 骑士
显示用户信息 
5楼  发表于: 2017-09-20  
谢谢楼主无私分享
happiness 离线
级别: 圣骑士
显示用户信息 
6楼  发表于: 2018-02-17  
回 楼主(wszdlh) 的帖子
感谢分享    
hua1998279 离线
级别: 骑士

显示用户信息 
7楼  发表于: 2018-10-07  
引进版音质会差点吗
jophyfong 离线
级别: 侠客
显示用户信息 
8楼  发表于: 2019-07-29  
感谢分享
0183102244 离线
级别: 圣骑士
显示用户信息 
9楼  发表于: 2019-07-30  
真正的无损的话已经非常难找啦!楼主自抓的话,应该是信得过的哦!
描述
快速回复

验证问题:
123456+654321=? 正确答案:777777
按"Ctrl+Enter"直接提交