登录注册
社区应用 最新帖子 获取酷币 勋章中心 会员列表 统计排行
主题 : 王心凌《第10個王心凌》(台灣預購版)整軌EAC自壓
heavenelva 离线
级别: 侠客
显示用户信息 
10楼  发表于: 2014-11-29  
这张终于有不错的自压版了,非常感谢
wangw0220 离线
级别: 骑士
显示用户信息 
11楼  发表于: 2014-11-29  
楼主真是无私奉献啊
panajan 离线
级别: 精灵王
显示用户信息 
12楼  发表于: 2014-11-30  
很久冇听过她的声音了...
jacke213 离线
级别: 骑士
显示用户信息 
13楼  发表于: 2014-11-30  
感謝版主無私的分享!等她的專輯等好久了!
cameltree 离线
级别: 侠客
显示用户信息 
14楼  发表于: 2014-11-30  
谢谢LZ分享!!!
言言 离线
级别: 精灵王
显示用户信息 
15楼  发表于: 2014-11-30  
王心凌17岁就是处女了。
jack4390 离线
级别: 圣骑士
显示用户信息 
16楼  发表于: 2014-11-30  
自壓的不多說

直接回覆幫支持

順便下載收藏 感謝
star2seven 离线
级别: 精灵王

显示用户信息 
17楼  发表于: 2014-11-30  
台版的果断支持的!!
xcjjustin 离线
级别: 圣骑士

显示用户信息 
18楼  发表于: 2014-11-30  
哇 多谢楼主啦,赶紧来听一下啦~
gdcg 在线
级别: 骑士
显示用户信息 
19楼  发表于: 2014-11-30  
你懂的。

REM DISCID 77093B0A
REM COMMENT "ExactAudioCopy v1.0b3"
PERFORMER "王心凌"
TITLE "第10個王心凌"
FILE "王心凌 - 第10個王心凌.wav" WAVE
  TRACK 01 AUDIO
    TITLE "天使的偏执"
    PERFORMER "王心凌"
    ISRC TWUM71400009
    INDEX 01 00:00:00
  TRACK 02 AUDIO
    TITLE "Baby boy"
    PERFORMER "王心凌"
    ISRC TWUM71400010
    INDEX 00 04:20:72
    INDEX 01 04:22:35
  TRACK 03 AUDIO
    TITLE "爱呢"
    PERFORMER "王心凌"
    ISRC TWUM71400011
    INDEX 00 07:35:65
    INDEX 01 07:37:70
  TRACK 04 AUDIO
    TITLE "陈淑芬与林志豪"
    PERFORMER "王心凌"
    ISRC TWUM71400012
    INDEX 00 11:46:55
    INDEX 01 11:48:70
  TRACK 05 AUDIO
    TITLE "昨天今天"
    PERFORMER "王心凌"
    ISRC TWUM71400013
    INDEX 00 15:35:47
    INDEX 01 15:38:05
  TRACK 06 AUDIO
    TITLE "说不出的味道"
    PERFORMER "王心凌"
    ISRC TWUM71400014
    INDEX 00 19:09:67
    INDEX 01 19:11:60
  TRACK 07 AUDIO
    TITLE "孤独的嘉年华"
    PERFORMER "王心凌"
    ISRC TWUM71400015
    INDEX 00 23:22:67
    INDEX 01 23:25:07
  TRACK 08 AUDIO
    TITLE "碰碰"
    PERFORMER "王心凌"
    ISRC TWUM71400016
    INDEX 00 27:47:15
    INDEX 01 27:49:52
  TRACK 09 AUDIO
    TITLE "两人份的幸福"
    PERFORMER "王心凌"
    ISRC TWUM71400017
    INDEX 00 31:12:17
    INDEX 01 31:14:37
  TRACK 10 AUDIO
    TITLE "从未到过的地方"
    PERFORMER "王心凌"
    ISRC TWUM71300109
    INDEX 00 35:28:52
    INDEX 01 35:29:67
描述
快速回复

验证问题:
123456+654321=? 正确答案:777777
按"Ctrl+Enter"直接提交