登录注册
社区应用 最新帖子 获取酷币 勋章中心 会员列表 统计排行
主题 : 陈势安《再爱一遍.天后》2011.11.11 WAV/整轨+log/403M/百度云
01game 离线
级别: 光明使者

显示用户信息 
0楼  发表于: 2014-01-12  

陈势安《再爱一遍.天后》2011.11.11 WAV/整轨+log/403M/百度云




专辑名称:再爱一遍.天后
歌手姓名:陈势安
制作发行:老鹰音乐
发行日期:2010年10月08日
专辑语言:华语流行

马上试听



专辑介绍:

2011-11-11 陈势安 - 再爱一遍.天后

再爱一遍.天后陈势安
2011 最新国语大碟 10/21来势汹汹
钱柜、好乐迪KTV超过42周点播 “冠军“
陈势安,早就是天王 !!

以“天后“一曲在台湾乐坛打响知名度的陈势安,尽管自己所演唱的歌曲高踞钱柜、好乐迪点播排行超过42周冠军,早就是乐坛新天王姿态但是一直以来都只闻楼梯响,不见陈势安本人正式现身,在广大歌迷引领期盼下,陈势安加入老鹰音乐-新人教父李亚明公司,经过严格培训以及高规格包装,在同门师兄Bii的带领下,以“势在必行“单曲展露头角,媒体及爱唱他歌的歌迷朋友们皆惊呼:原来他这么帅 !
【势在必行】单曲【气势如虹】9/23发片上架后急速荣登数位单曲榜NO.1、2名,每场签唱、签名会单曲现场都销售一空,个人首场售票演唱会[势在Bii行]也让现场的歌迷被他的歌声完全溶化!



专辑曲目:

     01.    势在必行        
     02.    心.洞        
     03.    再爱一遍        
     04.    不习惯喊痛        
     05.    问起        
     06.    Runaway        
     07.    盛夏        
     08.    女王        
     09.    爱不简单        
     10.    天后



检测:

引用
Exact Audio Copy V1.0 beta 3 from 29. August 2011

EAC 抓取日志文件从12. 一月 2014, 15:18

陈势安 / 再爱一遍.天后

使用驱动器  :PIONEER DVD-RW DVR-219L Adapter: 1 ID: 0

读取模式      : 可靠Secure
使用精确流     : 是
清空音频缓存    : 是
使用 C2 指示器 : 否

读取偏移校正:               : 0
读取 Lead-In 和 Lead-Out : 否
用静音填充抓取中丢失偏移的采样       : 是
去除首尾静音块               : 否
在CRC 计算中使用了空样本       : 是
已用接口                  : Win NT 及 2000 本地 Win32 接口

所用输出模式: : 内部 WAV 函数
样本格式    : 44.100 Hz; 16 Bit; 立体声


已抓取 CD 的 TOC

     音轨 |    起始    |    长度    |  起始扇区  |  结束扇区  
    --------------------------------------------
      1 |  0:00.00 |  4:04.24 |      0 |  18323
      2 |  4:04.24 |  4:36.39 |  18324 |  39062
      3 |  8:40.63 |  4:16.47 |  39063 |  58309
      4 | 12:57.35 |  4:07.72 |  58310 |  76906
      5 | 17:05.32 |  3:54.03 |  76907 |  94459
      6 | 20:59.35 |  3:49.52 |  94460 | 111686
      7 | 24:49.12 |  3:36.46 | 111687 | 127932
      8 | 28:25.58 |  3:28.23 | 127933 | 143555
      9 | 31:54.06 |  3:16.39 | 143556 | 158294
     10 | 35:10.45 |  4:49.30 | 158295 | 179999


范围状态及错误

已选择范围

     文件名 D:\CDImage.wav

     峰值电平 100.0 %
     抓取速度 6.1 X
     范围质量 99.9 %
     测试 CRC B2596B08
     复制 CRC B2596B08
     复制成功

没有错误发生

状态报告结尾


上传空间:baidu百度云

此帖售价 3 酷币,已有 12 人购买
若发现会员采用欺骗的方法获取财富,请立刻举报,我们会对会员处以2-N倍的罚金,严重者封掉ID!
清空我的评分动态本帖最近评分记录: 共1条评分记录
wodemake2009 酷币 -20 2014-01-12 重复发帖
隐藏评分记录
soszh 离线
级别: 侠客
显示用户信息 
1楼  发表于: 2014-01-12  
northernbaye 离线
级别: 侠客
显示用户信息 
2楼  发表于: 2014-11-02  
天后太赞!!谢谢楼主!!
0183102244 离线
级别: 圣骑士
显示用户信息 
3楼  发表于: 03-13  
值得一收的专辑!就是现在才收会不会太迟啦!
描述
快速回复

验证问题:
123456+654321=? 正确答案:777777
按"Ctrl+Enter"直接提交